Globe Institute - Chakra Balancing | Prince of Persia 2008 | Linda Porter

Three Billboards Outside Ebbing Missouri Torrent Free Download

Seeders : 887   &   Leechers : 460      13-02-2018 (5 days)
Added: ago by nehalpuja ***** in Movies   1.1 GB   Hits : 19
Info Hash: 0052C99DBA1D81E25EEAB7176D23B499088A937A Download
Three Billboards Outside Ebbing Missouri Torrent Download

Anonymous and Direct Download movies , software , shows...

Fast Safe Anonymous
movies, software, shows...
Three Billboards Outside Ebbing, Missouri
Crime /Drama  .   115 min   8.3/10
Director : Martin McDonagh  
Writer: Martin McDonagh  
Tags: Three  Billboards  Outside  Ebbing  Missouri  2017  

Released:
01 Dec 2017
THREE BILLBOARDS OUTSIDE EBBING, MISSOURI is a darkly comic drama from Academy Award winner Martin McDonagh (In Bruges). After months have passed without a culprit in her daughter's murder case, Mildred Hayes (Academy Award winner Frances McDormand) makes a bold mo.... See More ve, painting three signs leading into her town with a controversial message directed at William Willoughby (Academy Award nominee Woody Harrelson), the town's revered chief of police. When his second-in-command Officer Dixon (Sam Rockwell), an immature mother's boy with a penchant for violence, gets involved, the battle between Mildred and Ebbing's law enforcement is only exacerbated.

Torrent Description



Three Billboards Outside Ebbing Missouri 2017 Movies 720p HDRip x264 5.1 with Sample ☻rDX☻
===============================================================================================

SCREEN SHOTS:



or

http://postimage.co.nr/2018/2/creditcard/1.html

File size : 1.06 GiB
Duration : 1 h 55 min
Overall bit rate : 1 309 kb/s
Movie name : Three Billboards Outside Ebbing Missouri 2017 Movies 720p HDRip x264 5.1 ☻rDX☻

Video
ID : 2
Format : AVC
Format/Info : Advanced Video Codec
Format profile : [email protected]
Format settings, CABAC : Yes
Format settings, ReFrames : 4 frames
Codec ID : V_MPEG4/ISO/AVC
Duration : 1 h 55 min
Bit rate : 924 kb/s
Width : 1 280 pixels
Height : 532 pixels
Display aspect ratio : 2.40:1
Frame rate mode : Constant
Frame rate : 23.976 (24000/1001) FPS
Color space : YUV
Chroma subsampling : 4:2:0
Bit depth : 8 bits
Scan type : Progressive
Bits/(Pixel*Frame) : 0.057
Stream size : 745 MiB (69%)
Title : ☻rDX☻
Writing library : x264

Audio
ID : 1
Format : AC-3
Format/Info : Audio Coding 3
Mode extension : CM (complete main)
Format settings, Endianness : Big
Codec ID : A_AC3
Duration : 1 h 55 min
Bit rate mode : Constant
Bit rate : 384 kb/s
Channel(s) : 6 channels
Channel positions : Front: L C R, Side: L R, LFE
Sampling rate : 48.0 kHz
Frame rate : 31.250 FPS (1536 spf)
Bit depth : 16 bits
Compression mode : Lossy
Delay relative to video : -21 ms
Stream size : 318 MiB (29%)
Default : Yes
Forced : No



IMDB : http://www.imdb.com/title/tt5027774




Sharing Widget


No Comments For This Torrent . Be The First to Comment

You must Login to Comment . Click Here to Login

Menu 1

Some content in menu 1.

Three Billboards Outside Ebbing Missouri 2017 Movies 720p HDRip x264 5 (Size: 1.1 GB)
  Three Billboards Outside Ebbing Missouri 2017 Movies 720p HDRip x264 5 1.1 GB
tracker name
udp://tracker.leechers-paradise.org:6969/announce
udp://zer0day.ch:1337/announce
udp://open.demonii.com:1337/announce
udp://tracker.coppersurfer.tk:6969/announce
udp://exodus.desync.com:6969/announce
µTorrent compatible trackers list

Relative Torrents

Torrent Name Size Age SEED LEECH
StarTalk S04E18 Kelly Slater and the Scince of Surfing 720p WEB h264-W4F[N1C]
Posted by    NO1CARES   in   TV
886.1 MB 39 seconds 880 402
Final Cut Pro X 10 5 1 macOS
Posted by    iDope   in   Apps
17.0 MB 4 minutes 724 455
otbrosi_s1-5_kubik_v_kube_87c-0a0___ exe
Posted by    iDope   in   Apps
1.4 MB 4 minutes 67 982
age-of-empires-3_repack2_15a-3a8___ exe
Posted by    iDope   in   Apps
1.3 MB 4 minutes 646 633
Main Hi Raja Main Hi Mantri (2017) Full ovie in Hindi
Posted by    BloodThristy   in   Movies
1.3 GB 7 minutes 273 427