Thelma 2017 1080p BluRay x264 AAC LLG Torrent Free Download

Seeders : 288   &   Leechers : 734      14-02-2018 (1 week)
Added: ago by LifeLongg ***** in Movies   1.1 GB   Hits : 20
Info Hash: 83DC30F33F819DA1F1A93B00E384D22B929A04BA Download
Thelma 2017 1080p BluRay x264 AAC LLG Torrent Download

Anonymous and Direct Download movies , software , shows...

Fast Safe Anonymous
movies, software, shows...
Thelma
Drama /Fantasy /Mystery  .   116 min   7.2/10
Director : Joachim Trier  
Tags: Thelma  2017  1080p  BluRay  x264  AAC  

Released:
15 Sep 2017
A confused religious girl tries to deny her feelings for a female friend who's in love with her. This causes her suppressed subconsciously-controlled psychokinetic powers to reemerge as seizures with devastating results.

Torrent Description



******************************Thumbnail:**********************



******************************Screenshots:********************

Screenshot 1

Screenshot 2

Screenshot 3

Screenshot 4

Screenshot 5

Screenshot 6

Screenshot 7

Screenshot 8

Screenshot 9

Screenshot 0

Complete name : Thelma.2017.1080p.BluRay.x264.AAC.LLG.mp4
Format : MPEG-4
Format profile : Base Media
Codec ID : isom (isom/iso2/avc1/mp41)
File size : 1.07 GiB
Duration : 1 h 56 min
Overall bit rate : 1 326 kb/s
Writing application : Lavf57.56.101

Video
ID : 1
Format : AVC
Format/Info : Advanced Video Codec
Format profile : [email protected]
Format settings : CABAC / 4 Ref Frames
Format settings, CABAC : Yes
Format settings, RefFrames : 4 frames
Codec ID : avc1
Codec ID/Info : Advanced Video Coding
Duration : 1 h 56 min
Bit rate : 1 200 kb/s
Width : 1 920 pixels
Height : 800 pixels
Display aspect ratio : 2.40:1
Frame rate mode : Constant
Frame rate : 23.976 (23976/1000) FPS
Color space : YUV
Chroma subsampling : 4:2:0
Bit depth : 8 bits
Scan type : Progressive
Bits/(Pixel*Frame) : 0.033
Stream size : 988 MiB (90%)

Audio
ID : 2
Format : AAC
Format/Info : Advanced Audio Codec
Format profile : LC
Codec ID : mp4a-40-2
Duration : 1 h 56 min
Bit rate mode : Constant
Bit rate : 129 kb/s
Channel(s) : 2 channels
Channel positions : Front: L R
Sampling rate : 48.0 kHz
Frame rate : 46.875 FPS (1024 SPF)
Compression mode : Lossy
Stream size : 107 MiB (10%)
Default : Yes
Alternate group : 1




Sharing Widget


No Comments For This Torrent . Be The First to Comment

You must Login to Comment . Click Here to Login

Menu 1

Some content in menu 1.

Thelma 2017 1080p BluRay x264 AAC LLG (Size: 1.1 GB)
  Thelma 2017 1080p BluRay x264 AAC LLG 1.1 GB
tracker name
udp://tracker.leechers-paradise.org:6969/announce
udp://zer0day.ch:1337/announce
udp://open.demonii.com:1337/announce
udp://tracker.coppersurfer.tk:6969/announce
udp://exodus.desync.com:6969/announce
µTorrent compatible trackers list

Relative Torrents

Torrent Name Size Age SEED LEECH
Thor Ragnarok 2017 1080p BluRay x264 DTSHDMA 7 1 MSubS + XTRAS - Hon3y
Posted by    Hon3yHD   in   Movies
17.7 GB 47 seconds 48 895
Dont Call Me Son 2016 DVDRip x264-RedBlae
Posted by    hotpena   in   Movies
496.2 MB 47 seconds 953 463
Wonder Wheel (2017) [WEBRip] [1080p] [YT] [YIFY]
Posted by    YTSAGx   in   Movies
1.7 GB 47 seconds 637 909
Extraordinary Mission 2017 DVDRip x264-RdBlade
Posted by    Trige   in   Movies
975.3 MB 47 seconds 562 381
Stephen Colbert 2018 02 20 Kirsten Gillirand HDTV x264-SORNY[eztv]
Posted by    EZTVag   in   TV
345.0 MB 47 seconds 800 684