Shawn White's Gold Metal Run at Pyeongch Torrent Free Download

Seeders : 107   &   Leechers : 879      14-02-2018 (1 week)
Added: ago by HackRF ***** in TV   46.2 MB   Hits : 18
Info Hash: E2CA30B4EBE67C93FCE90135761493F1ADB3AE09 Download
Shawn White's Gold Metal Run at Pyeongch Torrent Download

Anonymous and Direct Download movies , software , shows...

Fast Safe Anonymous
movies, software, shows...

Torrent Description



Shawn White's Gold Metal Run at Pyeongchang 2018
Lays down a 97.75 to take #1 in the men's halfpipe.

http://s20.postimg.org/8kyyzdk65/Hack_RF-00076.png

General
Complete name : Shawn White's Gold Metal Run at Pyeongchang 2018.mkv
Format : Matroska
Format version : Version 2
File size : 46.2 MiB
Duration : 1 min 42 s
Overall bit rate : 3 777 kb/s
Encoded date : UTC 2018-02-14 03:26:44
Writing application : mkvmerge v15.0.0 ('Duel with the Devil') 64-bit
Writing library : libebml v1.3.5 + libmatroska v1.4.5

Video
ID : 1
Format : AVC
Format/Info : Advanced Video Codec
Format profile : [email protected]
Format settings, CABAC : Yes
Format settings, RefFrames : 5 frames
Codec ID : V_MPEG4/ISO/AVC
Duration : 1 min 42 s
Bit rate : 3 390 kb/s
Width : 1 280 pixels
Height : 720 pixels
Display aspect ratio : 16:9
Frame rate mode : Constant
Frame rate : 59.940 (60000/1001) FPS
Color space : YUV
Chroma subsampling : 4:2:0
Bit depth : 8 bits
Scan type : Progressive
Bits/(Pixel*Frame) : 0.061
Stream size : 41.4 MiB (90%)
Default : Yes
Forced : No

Audio
ID : 2
Format : AC-3
Format/Info : Audio Coding 3
Format settings, Endianness : Big
Codec ID : A_AC3
Duration : 1 min 42 s
Bit rate mode : Constant
Bit rate : 384 kb/s
Channel(s) : 6 channels
Channel positions : Front: L C R, Side: L R, LFE
Sampling rate : 48.0 kHz
Frame rate : 31.250 FPS (1536 SPF)
Bit depth : 16 bits
Compression mode : Lossy
Stream size : 4.69 MiB (10%)
Language : new
Service kind : Complete Main
Default : Yes
Forced : No




Sharing Widget


No Comments For This Torrent . Be The First to Comment

You must Login to Comment . Click Here to Login

Menu 1

Some content in menu 1.

Shawn White's Gold Metal Run at Pyeongchang 2018 mkv (Size: 46.2 MB)
  Shawn White's Gold Metal Run at Pyeongchang 2018 mkv 46.2 MB
tracker name
udp://tracker.leechers-paradise.org:6969/announce
udp://zer0day.ch:1337/announce
udp://open.demonii.com:1337/announce
udp://tracker.coppersurfer.tk:6969/announce
udp://exodus.desync.com:6969/announce
µTorrent compatible trackers list

Relative Torrents

Torrent Name Size Age SEED LEECH
Kirikou and the Men and Women 2012 (1080 BluRay x265 HEVC 10bit AAC 5 1 French
Posted by    iDope   in   Movies
1.0 GB 16 seconds 12 808
Runtime GetDataBack Simple 5 22 [InsTup] Portable
Posted by    iDope   in   Apps
3.6 MB 16 seconds 7 153
[BigWetButts] Cali Carter - Fireside Fap(19 02 2018) rq mp4
Posted by    iDope   in   Video
391.8 MB 6 minutes 824 455
Stephen Colbert 2018 02 21 Sam Rockwell 20p HDTV x264-SORNY[eztv]
Posted by    EZTVag   in   TV
1.2 GB 7 minutes 779 795
Stephen Colbert 2018 02 20 Kirsten Gillirand 720p HDTV x264-SORNY[eztv]
Posted by    EZTVag   in   TV
1.2 GB 17 minutes 79 472