Compactadores | are computers good to us? | Ask This Old ...

Ridge Runners 2018 Movies 720p HDRip x26 Torrent Free Download

Seeders : 621   &   Leechers : 721      13-02-2018 (5 days)
Added: ago by nehalpuja ***** in Movies   764.3 MB   Hits : 18
Info Hash: 4E9AA90115E0EAE4F7981ABB50004BB3A9DE3247 Download
Ridge Runners 2018 Movies 720p HDRip x26 Torrent Download

Anonymous and Direct Download movies , software , shows...

Fast Safe Anonymous
movies, software, shows...
Ridge Runners
Crime /Drama /Thriller  .   81 min   N/A/10
Director : Hunter West  
Writer: Austin Lott  
Tags: Ridge  Runners  2018  Movies  720p  HDRip  

Released:
19 Jan 2018
When a 12 year old girl goes missing, detective Rachel Willow discovers that human trafficking can happen anywhere, even in her small town.

Torrent Description



Ridge Runners 2018 Movies 720p HDRip x264 5.1 with Sample ☻rDX☻
===============================================================================================

SCREEN SHOTS:



or

http://postimage.co.nr/2018/2/ctr/1.html

File size : 756 MiB
Duration : 1 h 20 min
Overall bit rate : 1 318 kb/s
Movie name : Ridge Runners 2018 Movies 720p HDRip x264 5.1 ☻rDX☻

Video
ID : 2
Format : AVC
Format/Info : Advanced Video Codec
Format profile : [email protected]
Format settings, CABAC : Yes
Format settings, ReFrames : 4 frames
Codec ID : V_MPEG4/ISO/AVC
Duration : 1 h 20 min
Bit rate : 934 kb/s
Width : 1 280 pixels
Height : 532 pixels
Display aspect ratio : 2.40:1
Frame rate mode : Constant
Frame rate : 23.976 (24000/1001) FPS
Color space : YUV
Chroma subsampling : 4:2:0
Bit depth : 8 bits
Scan type : Progressive
Bits/(Pixel*Frame) : 0.057
Stream size : 521 MiB (69%)
Title : ☻rDX☻
Writing library : x264

Audio
ID : 1
Format : AC-3
Format/Info : Audio Coding 3
Mode extension : CM (complete main)
Format settings, Endianness : Big
Codec ID : A_AC3
Duration : 1 h 20 min
Bit rate mode : Constant
Bit rate : 384 kb/s
Channel(s) : 6 channels
Channel positions : Front: L C R, Side: L R, LFE
Sampling rate : 48.0 kHz
Frame rate : 31.250 FPS (1536 spf)
Bit depth : 16 bits
Compression mode : Lossy
Delay relative to video : -21 ms
Stream size : 220 MiB (29%)
Title : ☻rDX☻
Default : Yes
Forced : No



IMDB : http://www.imdb.com/title/tt4872260




Sharing Widget


No Comments For This Torrent . Be The First to Comment

You must Login to Comment . Click Here to Login

Menu 1

Some content in menu 1.

Ridge Runners 2018 Movies 720p HDRip x264 5 1 with Sample ☻rDX☻ (Size: 764.3 MB)
  Ridge Runners 2018 Movies 720p HDRip x264 5 1 with Sample ☻rDX☻ 764.3 MB
tracker name
udp://tracker.leechers-paradise.org:6969/announce
udp://zer0day.ch:1337/announce
udp://open.demonii.com:1337/announce
udp://tracker.coppersurfer.tk:6969/announce
udp://exodus.desync.com:6969/announce
µTorrent compatible trackers list

Relative Torrents

Torrent Name Size Age SEED LEECH
StarTalk S04E18 Kelly Slater and the Scince of Surfing WEB h264-W4F[N1C]
Posted by    NO1CARES   in   TV
481.3 MB 1 minute 468 576
StarTalk S04E18 Kelly Slater and the Scince of Surfing 720p WEB h264-W4F[N1C]
Posted by    NO1CARES   in   TV
886.1 MB 1 minute 880 402
Final Cut Pro X 10 5 1 macOS
Posted by    iDope   in   Apps
17.0 MB 5 minutes 724 455
otbrosi_s1-5_kubik_v_kube_87c-0a0___ exe
Posted by    iDope   in   Apps
1.4 MB 5 minutes 67 982
[Invictus]_Shinryaku!!_Ika_Musume_OVA_03[BD_1080p_Hi10P_FLAC][Ger-Sub][E9B7839C
Posted by    iDope   in   Video
682.7 MB 5 minutes 751 415